Debbaku Ta Dragus Muta 2017 Telugu Full Movie
Debbaku Ta Dragus Muta 2017 Telugu Watch Online

Zila Ghaziabad (2013) Hindi WEBHD 720p x264 AAC - 1.2GB - MovCr

  • Category Movies
  • Type Bollywood
  • Language Hindi
  • Total size 1.3 GB
  • Uploaded By ictv
  • Downloads 1272
  • Last checked 1 week ago
  • Date uploaded 1 week ago
  • Seeders 25
  • Leechers 24

Zila Ghaziabad

Zila Ghaziabad movie is a biopic, based on the notorious gangster Omprakash alias Babloo Srivastava's life. The movie is based on a war between two rival groups of Gurjars. One led by Satbir Gurjar (played by Vivek Oberoi) and the other led by Mahender Fauji Baisla, played by Arshad Warsi during 1990,s and the role of controversial Thakur police wala Pritam Singh. (a series of real life incidents) which happened in Ghaziabad. The Area around Ghaziabd and NOIDA is Gurjar dominated since old times. Mahendra Fauji Bainsla was an ex serviceman Indian Army and had fought in the Indo Pak wars of 1965 and 1971.

Infohash : DE1822FB5E918EDBD4C046DA8F684704CC288D38

Zila Ghaziabad (2013) Hindi WEBHD 720p x264 AAC - 1.2GB - MovCr

http://www.imdb.com/title/tt2171454/


General
Complete name : www.movcr.com - Zila Ghaziabad (2013) Hindi WEBHD 720p x264 AAC - 1.2GB - MovCr.mkv
Format : Matroska
Format version : Version 4 / Version 2
File size : 1.26 GiB
Duration : 2 h 22 min
Overall bit rate : 1 261 kb/s
Movie name : www.movcr.com
Encoded date : UTC 2018-02-13 17:03:21
Writing application : mkvmerge v20.0.0 ('I Am The Sun') 64-bit
Writing library : libebml v1.3.5 + libmatroska v1.4.8 / IDMmkvlib0.1
Language : und

Video
ID : 1
Format : VP9
Codec ID : V_VP9
Duration : 2 h 22 min
Bit rate : 1 136 kb/s
Width : 1 280 pixels
Height : 720 pixels
Display aspect ratio : 16:9
Frame rate mode : Constant
Frame rate : 24.000 FPS
Bits/(Pixel*Frame) : 0.051
Stream size : 1.13 GiB (90%)
Title : www.movcr.com
Default : Yes
Forced : No

Audio
ID : 2
Format : Opus
Codec ID : A_OPUS
Duration : 2 h 22 min
Bit rate : 122 kb/s
Channel(s) : 2 channels
Channel positions : Front: L R
Sampling rate : 48.0 kHz
Frame rate : 50.000 FPS (960 SPF)
Compression mode : Lossy
Stream size : 125 MiB (10%)
Title : www.movcr.com
Default : Yes
Forced : No










Files:

  • www.movcr.com - Zila Ghaziabad (2013) Hindi WEBHD 720p x264 AAC - 1.2GB - MovCr.mkv (1.3 GB)

Comments

Code:

  • udp://tracker.openbittorrent.com:80/announce
  • udp://tracker.coppersurfer.tk:6969/announce
  • udp://zer0day.ch:1337/announce
  • udp://tracker.leechers-paradise.org:6969/announce
  • udp://9.rarbg.com:2710/announce
  • udp://p4p.arenabg.com:1337/announce
  • udp://tracker.sktorrent.net:6969/announce
  • http://p4p.arenabg.com:1337/announce