Ver Un hombre de altura (2016) Online
Ver La wedding planner (2017)

Thor Ragnarok 2017 720p WEB-DL x264 Dual Audio Hindi - English ES...

  • Category Movies
  • Type Dubs/Dual Audio
  • Language Hindi
  • Total size 1.3 GB
  • Uploaded By moviezworldz
  • Downloads 29404
  • Last checked 4 weeks ago
  • Date uploaded 1 month ago
  • Seeders 148
  • Leechers 79

Thor: Ragnarok

ActionAdventureFantasyScience Fiction

Thor is imprisoned on the other side of the universe and finds himself in a race against time to get back to Asgard to stop Ragnarok, the destruction of his homeworld and the end of Asgardian civilization, at the hands of an all-powerful new threat, the ruthless Hela.

Infohash : 52B3A2061F75422838429D817AE58E7333D3B03D




General
Format : Matroska
Format version : Version 4 / Version 2
File size : 1.32 GiB
Duration : 2 h 10 min
Overall bit rate : 1 446 kb/s

Video
ID : 1
Format : AVC
Format/Info : Advanced Video Codec
Format profile : [email protected]
Format settings : CABAC / 4 Ref Frames
Format settings, CABAC : Yes
Format settings, ReFrames : 4 frames
Codec ID : V_MPEG4/ISO/AVC
Duration : 2 h 10 min
Bit rate : 1 200 kb/s
Width : 1 280 pixels
Height : 532 pixels
Display aspect ratio : 2.40:1
Frame rate mode : Constant
Frame rate : 23.976 (24000/1001) FPS
Color space : YUV
Chroma subsampling : 4:2:0
Bit depth : 8 bits
Scan type : Progressive
Bits/(Pixel*Frame) : 0.073
Stream size : 1.09 GiB (82%)
Writing library : x264 core 148 r2708 86b7198
Default : Yes
Forced : No

Audio #1
ID : 2
Format : AAC
Format/Info : Advanced Audio Codec
Format profile : LC
Codec ID : A_AAC-2
Duration : 2 h 10 min
Bit rate : 126 kb/s
Channel(s) : 2 channels
Channel positions : Front: L R
Sampling rate : 44.1 kHz
Frame rate : 43.066 FPS (1024 SPF)
Compression mode : Lossy
Stream size : 117 MiB (9%)
Language : Hindi
Default : Yes
Forced : No

Audio #2
ID : 4
Format : AC-3
Format/Info : Audio Coding 3
Codec ID : A_AC3
Duration : 2 h 10 min
Bit rate mode : Constant
Bit rate : 128 kb/s
Channel(s) : 2 channels
Channel positions : Front: L R
Sampling rate : 44.1 kHz
Frame rate : 28.711 FPS (1536 SPF)
Bit depth : 16 bits
Compression mode : Lossy
Stream size : 120 MiB (9%)
Language : English
Service kind : Complete Main
Default : No
Forced : No

Text
ID : 3
Format : UTF-8
Codec ID : S_TEXT/UTF8
Codec ID/Info : UTF-8 Plain Text
Duration : 2 h 9 min
Bit rate : 49 b/s
Count of elements : 1568
Stream size : 47.1 KiB (0%)
Language : English
Default : Yes
Forced : No















Files:

Thor Ragnarok 2017 720p WEB-DL x264 Dual Audio Hindi - English ESub
  • Thor Ragnarok 2017 720p WEB-DL x264 Dual Audio Hindi - English ESub.mkv (1.3 GB)

Comments

Code:

  • udp://tracker.coppersurfer.tk:6969/announce
  • udp://tracker.leechers-paradise.org:6969/announce
  • udp://inferno.demonoid.pw:3391/announce
  • udp://tracker.tntvillage.scambioetico.org:2710/announce
  • udp://tracker.pirateparty.gr:6969/announce
  • udp://9.rarbg.com:2710/announce
  • udp://public.popcorn-tracker.org:6969/announce
  • udp://tracker.zer0day.to:1337/announce
  • http://bigfoot1942.sektori.org:6969/announce
  • udp://ipv4.tracker.harry.lu:80/announce
  • udp://shadowshq.yi.org:6969/announce
  • udp://tracker.vanitycore.co:6969/announce
  • udp://tracker.opentrackr.org:1337/announce
  • udp://explodie.org:6969/announce
  • udp://eddie4.nl:6969/announce